10 Cloverfield Lane Dubbed Hindi | Ver Pelicula | Back to login

Скачать через торрент Рэмпейдж Rampage Фильм бесплатно в хорошем качестве torrent

Скачивайте на UnionPeer.org фильмы через торрент без регистрации. Новинки кино в хорошем качестве через торрент. На UnionPeer.org можно скачать через торрент фильмы 2014 и 2015 годов. Самые новые фильмы.

Скачать торрент Рэмпейдж Rampage бесплатно через .torrent фильм мультфильм сериал

Статистика раздачи
Размер:  11.81 GB   |    Зарегистрирован:  1 месяц 6 дней   |    .torrent скачан:  47 раз   |   
Раздают:  2  
   
загрузка...
 
Автор Сообщение

Galfimbul

avatar Galfimbul


Рэмпейдж /Rampage

Год выхода: 2018
Жанр: фантастика, боевик, приключения
Режиссер: Брэд Пейтон
В ролях: Дуэйн Джонсон, Наоми Харрис, Малин Акерман, Джеффри Дин Морган, Джейк Лэси, Джо Манганьелло, Марли Шелтон, П.Дж. Бирн, Деметриус Гросс, Джек Куэйд

О фильме:
Приматолог Дэвис Окойи предпочитает держаться подальше от людей и дружит с Джорджем, удивительно умным самцом гориллы, которого он воспитывал с самого рождения. Но вышедший из-под контроля генетический эксперимент превращает послушную обезьяну в яростного монстра. Более того, вскоре обнаруживается, что существуют и другие модифицированные хищники. Пока свежесозданные чудовища превращают в руины Северную Америку, стирая с лица Земли все, что попадается у них на пути, Окойи вместе с опальным генным инженером пытается изобрести антидот, прорываясь по бесконечному полю боя не только, чтобы предотвратить глобальную катастрофу, но и спасти бесстрашное существо, которое когда-то было его другом.

Страна: США
Студия: New Line Cinema
Продолжительность: 01:47:15
Перевод: Дублированный | Лицензия

Файл
Кодек: x264
Качество: BDRip 1080p
Видео: 1920x800, 13200 kbit/s, 23.976 fps
Звук:
Russian: AC3 / 5.1 / 48 kHz / 448 kbps / 16 bit - Дублированный [лицензия]
Russian: DTS / 5.1 / 48 kHz / 1509 kbps / 24 bit - Дублированный [ред.krat11]
Ukrainian: AC3 / 2.0 / 48 kHz / 192 kbps / 16 bit - Дублированный
English: AC3 / 5.1 / 48 kHz / 448 kbps / 16 bit - Оригинал
Субтитры: Русские (forced, full), английские
Unique ID : 5405665976910367363109450447134973170 (0x41117E8E4D5C7473F6A8C8B9E28DCF2)
Complete name : F:Rampage.2018.x264.BDRip.1080p.mkv
Format : Matroska
Format version : Version 4 / Version 2
File size : 11.8 GiB
Duration : 1 h 47 min
Overall bit rate : 15.8 Mb/s
Movie name : =Rampage=
Writing application : mkvmerge v24.0.0 ('Beyond The Pale') 64-bit
Writing library : libebml v1.3.6 + libmatroska v1.4.9

Video
ID : 1
Format : AVC
Format/Info : Advanced Video Codec
Format profile : [email protected]
Format settings : CABAC / 5 Ref Frames
Format settings, CABAC : Yes
Format settings, ReFrames : 5 frames
Codec ID : V_MPEG4/ISO/AVC
Duration : 1 h 47 min
Bit rate : 13.2 Mb/s
Width : 1 920 pixels
Height : 800 pixels
Display aspect ratio : 2.40:1
Frame rate mode : Constant
Frame rate : 23.976 (24000/1001) FPS
Color space : YUV
Chroma subsampling : 4:2:0
Bit depth : 8 bits
Scan type : Progressive
Bits/(Pixel*Frame) : 0.357
Stream size : 9.86 GiB (84%)
Title : =stimco=
Writing library : x264 core 152 r2851 ba24899
Encoding settings : cabac=1 / ref=5 / deblock=1:-2:-2 / analyse=0x3:0x133 / me=esa / subme=10 / psy=1 / psy_rd=1.03:0.07 / mixed_ref=1 / me_range=28 / chroma_me=1 / trellis=2 / 8x8dct=1 / cqm=0 / deadzone=21,11 / fast_pskip=1 / chroma_qp_offset=-2 / threads=6 / lookahead_threads=1 / sliced_threads=0 / nr=0 / decimate=1 / interlaced=0 / bluray_compat=0 / constrained_intra=0 / bframes=16 / b_pyramid=2 / b_adapt=2 / b_bias=0 / direct=1 / weightb=1 / open_gop=0 / weightp=2 / keyint=240 / keyint_min=23 / scenecut=40 / intra_refresh=0 / rc=crf / mbtree=0 / crf=18.0 / qcomp=0.65 / qpmin=0 / qpmax=69 / qpstep=4 / ip_ratio=1.35 / pb_ratio=1.25 / aq=3:0.80 / zones=145691,154313,crf=21
Language : English
Default : Yes
Forced : No

Audio #1
ID : 2
Format : AC-3
Format/Info : Audio Coding 3
Codec ID : A_AC3
Duration : 1 h 47 min
Bit rate mode : Constant
Bit rate : 448 kb/s
Channel(s) : 6 channels
Channel positions : Front: L C R, Side: L R, LFE
Sampling rate : 48.0 kHz
Frame rate : 31.250 FPS (1536 SPF)
Bit depth : 16 bits
Compression mode : Lossy
Stream size : 344 MiB (3%)
Title : Dub_[license]
Language : Russian
Service kind : Complete Main
Default : Yes
Forced : No

Audio #2
ID : 3
Format : AC-3
Format/Info : Audio Coding 3
Codec ID : A_AC3
Duration : 1 h 47 min
Bit rate mode : Constant
Bit rate : 192 kb/s
Channel(s) : 2 channels
Channel positions : Front: L R
Sampling rate : 48.0 kHz
Frame rate : 31.250 FPS (1536 SPF)
Bit depth : 16 bits
Compression mode : Lossy
Stream size : 147 MiB (1%)
Title : Dub_[Hurtom]
Language : Ukrainian
Service kind : Complete Main
Default : No
Forced : No

Audio #3
ID : 4
Format : DTS
Format/Info : Digital Theater Systems
Codec ID : A_DTS
Duration : 1 h 47 min
Bit rate mode : Constant
Bit rate : 1 509 kb/s
Channel(s) : 6 channels
Channel positions : Front: L C R, Side: L R, LFE
Sampling rate : 48.0 kHz
Frame rate : 93.750 FPS (512 SPF)
Bit depth : 24 bits
Compression mode : Lossy
Stream size : 1.13 GiB (10%)
Title : Dub_[Krat11]
Language : Russian
Default : No
Forced : No

Audio #4
ID : 5
Format : AC-3
Format/Info : Audio Coding 3
Codec ID : A_AC3
Duration : 1 h 47 min
Bit rate mode : Constant
Bit rate : 448 kb/s
Channel(s) : 6 channels
Channel positions : Front: L C R, Side: L R, LFE
Sampling rate : 48.0 kHz
Frame rate : 31.250 FPS (1536 SPF)
Bit depth : 16 bits
Compression mode : Lossy
Stream size : 344 MiB (3%)
Language : English
Service kind : Complete Main
Default : No
Forced : No

Text #1
ID : 6
Format : UTF-8
Codec ID : S_TEXT/UTF8
Codec ID/Info : UTF-8 Plain Text
Duration : 1 h 32 min
Bit rate : 2 b/s
Count of elements : 31
Stream size : 1.75 KiB (0%)
Title : Forced
Language : Russian
Default : Yes
Forced : Yes

Text #2
ID : 7
Format : UTF-8
Codec ID : S_TEXT/UTF8
Codec ID/Info : UTF-8 Plain Text
Duration : 1 h 46 min
Bit rate : 83 b/s
Count of elements : 1292
Stream size : 65.0 KiB (0%)
Title : Full
Language : Russian
Default : No
Forced : No

Text #3
ID : 8
Format : UTF-8
Codec ID : S_TEXT/UTF8
Codec ID/Info : UTF-8 Plain Text
Duration : 1 h 37 min
Bit rate : 56 b/s
Count of elements : 1352
Stream size : 40.6 KiB (0%)
Language : English
Default : No
Forced : No

Menu
00:00:00.000 : en:00:00:00.000
00:12:58.528 : en:00:12:58.528
00:19:56.278 : en:00:19:56.278
00:29:53.291 : en:00:29:53.291
00:40:35.391 : en:00:40:35.391
00:49:10.906 : en:00:49:10.906
01:02:38.171 : en:01:02:38.171
01:10:37.650 : en:01:10:37.650
01:20:10.472 : en:01:20:10.472
01:29:23.608 : en:01:29:23.608
01:39:43.186 : en:01:39:43.186
Источник http://BlaTor.org

Трекер:  [ 11-Июл-2018 16:40 ]

  

Скачать .torrent

Размер .torrent файла 59 KB


Размер: 11.81 GB
Хэш (hash) релиза: 8d0ef0719f88e1be06d070205a18468bf0f853a3
Подписка на обновления:

Торренты, похожие на Рэмпейдж Rampage скачать торрент

Форум Название Автор Размер S L Добавлен
Зарубежные фильмы 2016-2018 (Новинки зарубежного кино) ·%· Рэмпейдж / Rampage (2018) Blu-Ray EUR 1080p | Лицензия Galfimbul 3890562296936.23 GB 0 0 1533207012

13:50

2-Авг-18

Зарубежные фильмы 2016-2018 (Новинки зарубежного кино) ·%· Рэмпейдж / Rampage (2018) BDRip 1080p от Rustorka | 60 fps | Лицензия Galfimbul 104824989229.76 GB 2 0 1532041849

02:10

20-Июл-18

Зарубежные фильмы до 2016 ·%· Рэмпейдж / Rampage (Брэд Пейтон / Brad Peyton) [2018, США, фантастика, боевик, приключения, BDRip 1080p] 2x Dub + Sub Rus, Eng + Original Eng Galfimbul 1716920027815.99 GB 0 0 1531560635

12:30

14-Июл-18

Зарубежные фильмы 2016-2018 (Новинки зарубежного кино) ·%· Рэмпейдж / Rampage (2018) BDRip-HEVC 1080p 10bit от Xuchilbara | Лицензия Galfimbul 31263441862.91 GB 2 0 1531462832

09:20

13-Июл-18

Зарубежные фильмы до 2016 ·%· Рэмпейдж / Rampage (Брэд Пейтон / Brad Peyton) [2018, США, фантастика, боевик, приключения, BDRemux 1080p] 2x Dub + Sub Rus, Eng + Original Eng Galfimbul 2887212622426.89 GB 0 0 1531441816

03:30

13-Июл-18

Зарубежные фильмы 2016-2018 (Новинки зарубежного кино) ·%· Рэмпейдж / Rampage (2018) BDRip 1080p от Ash61 | 3D-Video | halfOU | Лицензия Galfimbul 98756991309.2 GB 0 0 1531434008

01:20

13-Июл-18

Зарубежные фильмы до 2016 ·%· Рэмпейдж / Rampage (Брэд Пейтон / Brad Peyton) [2018, США, фантастика, боевик, приключения, UHD Blu-ray disc 2160p] [EUR] Dub + Sub Rus, Eng + Original Eng Galfimbul 6217379054157.9 GB 0 0 1531326635

19:30

11-Июл-18

Зарубежные фильмы 2016-2018 (Новинки зарубежного кино) ·%· Рэмпейдж / Rampage (2018) BDRip 1080p | Лицензия Galfimbul 1610921562315 GB 0 0 1531325407

19:10

11-Июл-18

Зарубежные фильмы 2016-2018 (Новинки зарубежного кино) ·%· Рэмпейдж / Rampage (2018) BDRip от ExKinoRay | Лицензия Galfimbul 15715267621.46 GB 2 0 1531312211

15:30

11-Июл-18

Зарубежные фильмы 2016-2018 (Новинки зарубежного кино) ·%· Рэмпейдж / Rampage (2018) UHD Blu-ray Remux 2160p от ExKinoRay | HDR | Dolby Vision | Лицензия Galfimbul 5742696712453.48 GB 0 0 1531271407

04:10

11-Июл-18

Зарубежные фильмы 2016-2018 (Новинки зарубежного кино) ·%· Рэмпейдж / Rampage (2018) UHD Blu-ray 2160p | HDR | Лицензия Galfimbul 5393892207950.23 GB 0 0 1531263009

01:50

11-Июл-18

Зарубежные фильмы 2016-2018 (Новинки зарубежного кино) ·%· Рэмпейдж / Rampage (2018) UHD Blu-ray 2160p | HDR | Dolby Vision | Лицензия Galfimbul 6217379054157.9 GB 0 0 1531261808

01:30

11-Июл-18

Зарубежные фильмы 2016-2018 (Новинки зарубежного кино) ·%· Рэмпейдж / Rampage (2018) BDRip-AVC от OlLanDGroup | Лицензия Galfimbul 779198883743 MB 0 0 1531258219

00:30

11-Июл-18

Зарубежные фильмы 2016-2018 (Новинки зарубежного кино) ·%· Рэмпейдж / Rampage (2018) BDRip-AVC от OlLanDGroup | Лицензия Galfimbul 15662322441.46 GB 0 0 1531257012

00:10

11-Июл-18

Зарубежные фильмы 2016-2018 (Новинки зарубежного кино) ·%· Рэмпейдж / Rampage (2018) BDRip 720p от OlLanDGroup | Лицензия Galfimbul 54491437825.07 GB 0 0 1531255812

23:50

10-Июл-18

Зарубежные фильмы 2016-2018 (Новинки зарубежного кино) ·%· Рэмпейдж / Rampage (2018) BDRip 1080p от OlLanDGroup | Лицензия Galfimbul 1195052137111.13 GB 0 0 1531254010

23:20

10-Июл-18

Зарубежные фильмы 2016-2018 (Новинки зарубежного кино) ·%· Рэмпейдж / Rampage (2018) BDRip 720p от Scarabey | iTunes Galfimbul 45929122744.28 GB 0 0 1530983517

20:11

7-Июл-18

Зарубежные фильмы 2016-2018 (Новинки зарубежного кино) ·%· Рэмпейдж / Rampage (2018) BDRip-AVC от HELLYWOOD | iTunes Galfimbul 15142477551.41 GB 0 0 1530983492

20:11

7-Июл-18

Зарубежные фильмы 2016-2018 (Новинки зарубежного кино) ·%· Рэмпейдж / Rampage (2018) BDRip 720p от HELLYWOOD | iTunes Galfimbul 46311230524.31 GB 0 0 1530935407

06:50

7-Июл-18

Еще никто не оставлял запись к записи скачать торрент Рэмпейдж Rampage . Будь первым!

!Обратная связь