CBT Nuggets - Shawn Powers - CentOS System Administrator Prep [26 WebRip (MP4)] | Films HDLight 1080p | How I Met Your Mother S09E23-E24 HDTV x264-EXCELLENCE

Скачать через торрент Рэмпейдж Rampage Фильм бесплатно в хорошем качестве torrent

Скачивайте на UnionPeer.org фильмы через торрент без регистрации. Новинки кино в хорошем качестве через торрент. На UnionPeer.org можно скачать через торрент фильмы 2014 и 2015 годов. Самые новые фильмы.

Скачать торрент Рэмпейдж Rampage бесплатно через .torrent фильм мультфильм сериал

Статистика раздачи
Размер:  15 GB   |    Зарегистрирован:  1 месяц 6 дней   |    .torrent скачан:  42 раза   |   
Раздают:  1  
   
загрузка...
 
Автор Сообщение

Galfimbul

avatar Galfimbul



Рэмпейдж /Rampage

Год выхода: 2018
Жанр: Фантастика
, боевик, приключения
Режиссер: Брэд Пейтон
В ролях: Дуэйн Джонсон, Наоми Харрис, Малин Акерман, Джеффри Дин Морган, Джейк Лэси, Джо Манганьелло, Марли Шелтон, П.Дж. Бирн, Деметриус Гросс, Джек Куэйд
О фильме: Приматолог Дэвис Окойи предпочитает держаться подальше от людей и дружит с Джорджем, удивительно умным самцом гориллы, которого он воспитывал с самого рождения. Но вышедший из-под контроля генетический эксперимент превращает послушную обезьяну в яростного монстра. Более того, вскоре обнаруживается, что существуют и другие модифицированные хищники. Пока свежесозданные чудовища превращают в руины Северную Америку, стирая с лица Земли все, что попадается у них на пути, Окойи вместе с опальным генным инженером пытается изобрести антидот, прорываясь по бесконечному полю боя не только, чтобы предотвратить глобальную катастрофу, но и спасти бесстрашное существо, которое когда-то было его другом.

Страна: США
Студия: Warner Bros. Pictures, New Line Cinema
Продолжительность: 01:47:16
Перевод: профессиональный (дублированный)
Субтитры: русские (forced, full), английские (full, SDH)
Формат: MKV
Качество: BDRip 1080p [TayTo]
Видео: MPEG-4 AVC / 17900 kbps / 1920x800 / 23.976 fps
Звук:
Аудио 1: Русский / DD Audio / 5.1 / 48 kHz / 448 kbps - Дублированный
Аудио 2: Украинский / DD Audio / 2.0 / 48 kHz / 192 kbps - Дублированный
Аудио 3: Английский / DTS Audio / 5.1 / 48 kHz / 1536 kbps - Оригинальный
Format : Matroska
Format version : Version 4 / Version 2
File size : 15.0 GiB
Duration : 1 h 47 min
Overall bit rate : 20.0 Mb/s
Movie name : Rampage (2018) BDRip 1080p [TayTO]
Encoded date : UTC 2018-07-11 15:38:20
Writing application : mkvmerge v22.0.0 ('At The End Of The World') 64-bit
Writing library : libebml v1.3.5 + libmatroska v1.4.8

Video
ID : 1
Format : AVC
Format/Info : Advanced Video Codec
Format profile : [email protected]
Format settings, CABAC : Yes
Format settings, RefFrames : 5 frames
Codec ID : V_MPEG4/ISO/AVC
Duration : 1 h 47 min
Bit rate : 17.9 Mb/s
Width : 1 920 pixels
Height : 800 pixels
Display aspect ratio : 2.40:1
Frame rate mode : Constant
Frame rate : 23.976 (24000/1001) FPS
Color space : YUV
Chroma subsampling : 4:2:0
Bit depth : 8 bits
Scan type : Progressive
Bits/(Pixel*Frame) : 0.485
Stream size : 13.4 GiB (89%)
Title : Рэмпейдж / Rampage (2018)
Writing library : x264 core 155 r2867+82 a249126 t_mod_Custom_2 [[email protected] X86_64]
Encoding settings : cabac=1 / ref=5 / deblock=1:-3:-3 / analyse=0x3:0x133 / me=umh / subme=11 / psy=1 / fade_compensate=0.00 / psy_rd=1.15:0.00 / mixed_ref=1 / me_range=32 / chroma_me=1 / trellis=2 / 8x8dct=1 / cqm=0 / deadzone=21,11 / fast_pskip=0 / chroma_qp_offset=-2 / threads=6 / lookahead_threads=1 / sliced_threads=0 / nr=0 / decimate=0 / interlaced=0 / bluray_compat=0 / constrained_intra=0 / fgo=0 / bframes=9 / b_pyramid=2 / b_adapt=2 / b_bias=0 / direct=3 / weightb=1 / open_gop=0 / weightp=2 / keyint=240 / keyint_min=23 / scenecut=40 / intra_refresh=0 / rc_lookahead=60 / rc=crf / mbtree=0 / crf=18.1000 / qcomp=0.65 / qpmin=0:0:0 / qpmax=69:69:69 / qpstep=4 / vbv_maxrate=62500 / vbv_bufsize=78125 / crf_max=0.0 / nal_hrd=none / filler=0 / ip_ratio=1.30 / pb_ratio=1.20 / aq=3:0.75 / aq-sensitivity=10.00 / aq-factor=1.00:1.00:1.00 / aq2=0 / aq3=0 / zones=49,573,crf=15/2000,2835,crf=16.5/3458,3965,crf=15.5/3966,5512,crf=17/6162,6540,crf=15.5/7380,7478,crf=15.5/7557,7639,
crf=15.5/8076,8237,crf=15.5/12863,12958,crf=15/19035,19059,crf=15/19447,19586,crf=15/27937,28037,crf=15/28093,28305,crf=15.
5/30979,31053,crf=15/40235,40285,crf=15/47352,47538,crf=16/48204,48270,crf=16/48642,48702,crf=15/48899,48940,crf=15/50596,5
0796,crf=15/51975,52034,crf=15/52278,52419,crf=15.5/54804,54910,crf=16/54911,55023,crf=15/55959,56095,crf=16/56187,56232,cr
f=16/56304,56348,crf=16/56442,56584,crf=16/56782,56833,crf=16/56897,56931,crf=16/57055,57180,crf=16/57203,57253,crf=16/5730
2,57525,crf=16/60540,60626,crf=14/63490,63538,crf=15/64432,64460,crf=15/64760,64812,crf=15/66176,66239,crf=15/66324,66349,c
rf=15/66432,66486,crf=15/66533,66564,crf=15/66922,67068,crf=15/67213,67238,crf=15/67821,67985,crf=15/68068,68378,crf=15.5/6
9285,69377,crf=15/75481,75759,crf=16/85798,85820,crf=15/89781,90105,crf=16/91417,91447,crf=15/92232,92308,crf=15/92580,9262
2,crf=14/95415,95884,crf=16/97166,97341,crf=14/98172,98293,crf=15/102606,102737,crf=15/107239,107258,crf=14/109018,109090,c
rf=15/109590,109666,crf=14/109698,109730,crf=14/109903,109959,crf=14/110096,110287,crf=14/110369,110480,crf=14/111701,11176
5,crf=15/112087,112500,crf=15/112650,112706,crf=14/115400,115414,crf=14/117529,117670,crf=15/118325,118350,crf=14/124050,12
4080,crf=14/124600,124650,crf=15/128260,128308,crf=15/128360,128446,crf=15/130634,130655,crf=15/132997,133011,crf=15/133050
,133057,crf=15/133570,133592,crf=15/134270,134327,crf=15/143380,143407,crf=16/143478,143688,crf=14/143726,145690,crf=15/154
161,154172,crf=15
Language : English
Default : Yes
Forced : No
Color range : Limited
Color primaries : BT.709
Transfer characteristics : BT.709
Matrix coefficients : BT.709

Audio #1
ID : 2
Format : AC-3
Format/Info : Audio Coding 3
Format settings, Endianness : Big
Codec ID : A_AC3
Duration : 1 h 47 min
Bit rate mode : Constant
Bit rate : 448 kb/s
Channel(s) : 6 channels
Channel positions : Front: L C R, Side: L R, LFE
Sampling rate : 48.0 kHz
Frame rate : 31.250 FPS (1536 SPF)
Bit depth : 16 bits
Compression mode : Lossy
Stream size : 344 MiB (2%)
Title : Дублированный
Language : Russian
Service kind : Complete Main
Default : Yes
Forced : No

Audio #2
ID : 3
Format : AC-3
Format/Info : Audio Coding 3
Format settings, Endianness : Big
Codec ID : A_AC3
Duration : 1 h 47 min
Bit rate mode : Constant
Bit rate : 192 kb/s
Channel(s) : 2 channels
Channel positions : Front: L R
Sampling rate : 48.0 kHz
Frame rate : 31.250 FPS (1536 SPF)
Bit depth : 16 bits
Compression mode : Lossy
Stream size : 147 MiB (1%)
Title : Дублированный
Language : Ukrainian
Service kind : Complete Main
Default : No
Forced : No

Audio #3
ID : 4
Format : DTS
Format/Info : Digital Theater Systems
Mode : 16
Format settings, Endianness : Big
Codec ID : A_DTS
Duration : 1 h 47 min
Bit rate mode : Constant
Bit rate : 1 509 kb/s
Channel(s) : 6 channels
Channel positions : Front: L C R, Side: L R, LFE
Sampling rate : 48.0 kHz
Frame rate : 93.750 FPS (512 SPF)
Bit depth : 16 bits
Compression mode : Lossy
Stream size : 1.13 GiB (8%)
Title : Оригинальный
Language : English
Default : No
Forced : No

Text #1
ID : 5
Format : UTF-8
Codec ID : S_TEXT/UTF8
Codec ID/Info : UTF-8 Plain Text
Duration : 1 h 32 min
Bit rate : 2 b/s
Count of elements : 31
Stream size : 1.75 KiB (0%)
Title : Forced
Language : Russian
Default : Yes
Forced : No

Text #2
ID : 6
Format : UTF-8
Codec ID : S_TEXT/UTF8
Codec ID/Info : UTF-8 Plain Text
Duration : 1 h 46 min
Bit rate : 83 b/s
Count of elements : 1291
Stream size : 64.9 KiB (0%)
Title : Full
Language : Russian
Default : No
Forced : No

Text #3
ID : 7
Format : UTF-8
Codec ID : S_TEXT/UTF8
Codec ID/Info : UTF-8 Plain Text
Duration : 1 h 45 min
Bit rate : 51 b/s
Count of elements : 1281
Stream size : 39.6 KiB (0%)
Title : Full
Language : English
Default : No
Forced : No

Text #4
ID : 8
Format : UTF-8
Codec ID : S_TEXT/UTF8
Codec ID/Info : UTF-8 Plain Text
Duration : 1 h 45 min
Bit rate : 57 b/s
Count of elements : 1544
Stream size : 44.9 KiB (0%)
Title : SDH
Language : English
Default : No
Forced : No

Menu
00:00:00.000 : en:Chapter 01
00:12:58.527 : en:Chapter 02
00:19:56.278 : en:Chapter 03
00:29:53.291 : en:Chapter 04
00:40:35.391 : en:Chapter 05
00:49:10.906 : en:Chapter 06
01:02:38.171 : en:Chapter 07
01:10:37.650 : en:Chapter 08
01:20:10.472 : en:Chapter 09
01:29:23.608 : en:Chapter 10
01:39:43.185 : en:Chapter 11
01:47:15.846 : en:Chapter 12
Источник http://BlaTor.org

Трекер:  [ 11-Июл-2018 19:10 ]

  

Скачать .torrent

Размер .torrent файла 75 KB


Размер: 15 GB
Хэш (hash) релиза: 895ca57a66be899c1d16630483cd0f7973582ca2
Подписка на обновления:

Торренты, похожие на Рэмпейдж Rampage скачать торрент

Форум Название Автор Размер S L Добавлен
Зарубежные фильмы 2016-2018 (Новинки зарубежного кино) ·%· Рэмпейдж / Rampage (2018) Blu-Ray EUR 1080p | Лицензия Galfimbul 3890562296936.23 GB 0 0 1533207012

13:50

2-Авг-18

Зарубежные фильмы 2016-2018 (Новинки зарубежного кино) ·%· Рэмпейдж / Rampage (2018) BDRip 1080p от Rustorka | 60 fps | Лицензия Galfimbul 104824989229.76 GB 2 0 1532041849

02:10

20-Июл-18

Зарубежные фильмы до 2016 ·%· Рэмпейдж / Rampage (Брэд Пейтон / Brad Peyton) [2018, США, фантастика, боевик, приключения, BDRip 1080p] 2x Dub + Sub Rus, Eng + Original Eng Galfimbul 1716920027815.99 GB 0 0 1531560635

12:30

14-Июл-18

Зарубежные фильмы 2016-2018 (Новинки зарубежного кино) ·%· Рэмпейдж / Rampage (2018) BDRip-HEVC 1080p 10bit от Xuchilbara | Лицензия Galfimbul 31263441862.91 GB 2 0 1531462832

09:20

13-Июл-18

Зарубежные фильмы до 2016 ·%· Рэмпейдж / Rampage (Брэд Пейтон / Brad Peyton) [2018, США, фантастика, боевик, приключения, BDRemux 1080p] 2x Dub + Sub Rus, Eng + Original Eng Galfimbul 2887212622426.89 GB 0 0 1531441816

03:30

13-Июл-18

Зарубежные фильмы 2016-2018 (Новинки зарубежного кино) ·%· Рэмпейдж / Rampage (2018) BDRip 1080p от Ash61 | 3D-Video | halfOU | Лицензия Galfimbul 98756991309.2 GB 0 0 1531434008

01:20

13-Июл-18

Зарубежные фильмы до 2016 ·%· Рэмпейдж / Rampage (Брэд Пейтон / Brad Peyton) [2018, США, фантастика, боевик, приключения, UHD Blu-ray disc 2160p] [EUR] Dub + Sub Rus, Eng + Original Eng Galfimbul 6217379054157.9 GB 0 0 1531326635

19:30

11-Июл-18

Зарубежные фильмы 2016-2018 (Новинки зарубежного кино) ·%· Рэмпейдж / Rampage (2018) BDRip 1080p | D Galfimbul 1268207291811.81 GB 0 0 1531316407

16:40

11-Июл-18

Зарубежные фильмы 2016-2018 (Новинки зарубежного кино) ·%· Рэмпейдж / Rampage (2018) BDRip от ExKinoRay | Лицензия Galfimbul 15715267621.46 GB 2 0 1531312211

15:30

11-Июл-18

Зарубежные фильмы 2016-2018 (Новинки зарубежного кино) ·%· Рэмпейдж / Rampage (2018) UHD Blu-ray Remux 2160p от ExKinoRay | HDR | Dolby Vision | Лицензия Galfimbul 5742696712453.48 GB 0 0 1531271407

04:10

11-Июл-18

Зарубежные фильмы 2016-2018 (Новинки зарубежного кино) ·%· Рэмпейдж / Rampage (2018) UHD Blu-ray 2160p | HDR | Лицензия Galfimbul 5393892207950.23 GB 0 0 1531263009

01:50

11-Июл-18

Зарубежные фильмы 2016-2018 (Новинки зарубежного кино) ·%· Рэмпейдж / Rampage (2018) UHD Blu-ray 2160p | HDR | Dolby Vision | Лицензия Galfimbul 6217379054157.9 GB 0 0 1531261808

01:30

11-Июл-18

Зарубежные фильмы 2016-2018 (Новинки зарубежного кино) ·%· Рэмпейдж / Rampage (2018) BDRip-AVC от OlLanDGroup | Лицензия Galfimbul 779198883743 MB 0 0 1531258219

00:30

11-Июл-18

Зарубежные фильмы 2016-2018 (Новинки зарубежного кино) ·%· Рэмпейдж / Rampage (2018) BDRip-AVC от OlLanDGroup | Лицензия Galfimbul 15662322441.46 GB 0 0 1531257012

00:10

11-Июл-18

Зарубежные фильмы 2016-2018 (Новинки зарубежного кино) ·%· Рэмпейдж / Rampage (2018) BDRip 720p от OlLanDGroup | Лицензия Galfimbul 54491437825.07 GB 0 0 1531255812

23:50

10-Июл-18

Зарубежные фильмы 2016-2018 (Новинки зарубежного кино) ·%· Рэмпейдж / Rampage (2018) BDRip 1080p от OlLanDGroup | Лицензия Galfimbul 1195052137111.13 GB 0 0 1531254010

23:20

10-Июл-18

Зарубежные фильмы 2016-2018 (Новинки зарубежного кино) ·%· Рэмпейдж / Rampage (2018) BDRip 720p от Scarabey | iTunes Galfimbul 45929122744.28 GB 0 0 1530983517

20:11

7-Июл-18

Зарубежные фильмы 2016-2018 (Новинки зарубежного кино) ·%· Рэмпейдж / Rampage (2018) BDRip-AVC от HELLYWOOD | iTunes Galfimbul 15142477551.41 GB 0 0 1530983492

20:11

7-Июл-18

Зарубежные фильмы 2016-2018 (Новинки зарубежного кино) ·%· Рэмпейдж / Rampage (2018) BDRip 720p от HELLYWOOD | iTunes Galfimbul 46311230524.31 GB 0 0 1530935407

06:50

7-Июл-18

Еще никто не оставлял запись к записи скачать торрент Рэмпейдж Rampage . Будь первым!

!Обратная связь